金圣·大江论坛 - 江西论坛

 找回密码
 会员注册

QQ登录

只需一步,快速开始

搜索
查看: 73444|回复: 17
收起左侧

[雅乐] 原抓-歌剧女王玛利亚卡拉斯精选2 EMI荷兰版 [APE/297M]下载

[复制链接]
发表于 2010-6-15 13:40 | 显示全部楼层 |阅读模式

立即注册,与更多好友畅游大江!

您需要 登录 才可以下载或查看,没有帐号?会员注册

x
本帖最后由 菌菌 于 2010-6-15 14:51 编辑 - R! j4 x) d, k7 o1 k
) M) i. z) ^9 m0 u* K+ \4 d& a* m
卡拉斯1.jpg
% I" d. g) @( O% C 卡拉斯2.jpg
) D9 s8 W" [2 g# H3 d 卡拉斯3.jpg + T! f+ m( b) a( \9 ^/ A
% ?9 g8 u, m' K2 D; j  H! i! A
这张CD貌似在网络上还没见过,只有电驴上有第三集的,有兴趣可以去看下。
; `5 F3 d, Q' H9 F" D1 L% v5 u  d$ V

2 H7 W  ^  }9 v6 \  m3 Z+ ?) K+ z6 `) k* u, i4 `* L
专辑介绍:
# [/ z# ?" @$ o5 Q* O  f+ n9 \& h! z3 v6 Y+ `
       1992年,距离卡拉丝瘁亡於巴黎后15年过去了,EMI首度推出〈歌剧女神〉纪念专辑一秋日之中驀然回首,歌剧女神世纪性绝代风华重现。跨越著世代的阻隔,九零年代世纪末的氛围中,卡拉丝的凝视与红唇继续她重返的宣称─1993年〈歌剧女神2〉仍然深深攫获广大寂寞与绝望边缘的人心。
# k; m% A: E% D# Y) G8 f8 l, P$ C1 K) C5 n! `$ U
  1994年,TOM HANKS以电影〈费城〉获奥斯卡最佳男主角─那个让世人纷纷跨越藩篱喜爱著的勇敢角色,在他的生命奋战过程中所最钟爱的音乐便是卡拉丝,一段带著点滴瓶、却仍全神融入〈LA MAMMA MORTA〉聆听的撼人演,让卡拉丝的演唱被称誉为"影史少见非原著配乐的最佳詮释",卡拉丝因此成为电影〈费城〉音乐意象的真正守护神,与BRUCE SPRINGSTEEN、NEIL YOUNG鼎足而立、但是却有更深沈的艺术生命与更超越的希望救赎。1 c/ @3 B3 L/ [+ h  g! X
8 H' P, I9 C( [+ q
  走过整个世纪的孤寂与动荡终於发现卡拉丝─现在,我们给您完整的、只在EMI"歌剧女神"再次深情重返。: F4 [* Z$ b, l' Z

- A% Z* [" G1 b" h0 E   卡拉丝在她短短不到二十年的歌剧演唱生涯中,散发出无人能比的光与热,影响二十世纪后半叶乐坛极深,再加上唱片录音助长,使其影响力堪成史上无人能及。她的演唱生涯一开始是以唱功偏重的戏剧女高音开始的,她先是演唱杜兰朵公主和华格纳的伊索德闻名,之后才以人惊奇的姿态迅速转型为美声演唱家,一手提携了在当时已经没落的美声歌剧,以浓郁的戏剧手法,把董尼采第、贝里尼和罗西尼等人的歌剧再度带回到现代歌剧院中。综观卡拉丝的歌唱技艺,她丰富多变的音色,可以说最人惊讶而一再被人提及的。她可以用让人几乎无法辨识的嗓音演唱不同角色,甚至在同一剧中,为主角不同阶段的心情、年纪塑造不同的音色,以达到其戏剧上的效果。她在每一场演出中无遗餘力、毫无保留的卖力演唱,则更是让她教人难忘的主要原因之一。她深入刻划剧中人物的演出功力,以及对音乐和戏剧的感应之深,也是历来女高音所无法企及的地方。   在这选辑中,我们可以听到卡拉以远超过其他女高音的多样风格,展现了她的歌唱绝艺。她在写实歌剧、法国歌剧、意大利古典歌剧和美声歌剧之间游走,对寻常的女高音而言,这是横跨花腔、戏剧女高音、抒情女高音和重抒情女高音的广泛类别,若非实力到此,轻易尝试必遭恶评、甚至身败名裂,唯独卡拉丝,却能够在其中游刃有餘,让每个角色都像是她与生俱来的一样。- M1 N6 ]% T) B- p( c+ n9 p8 o4 g

  f5 }# @* v& o) V9 a3 x
1 S' g" d4 O, z5 R; E! W# \
  x/ ?0 O: i* e7 E 下载种子
' h) L/ F9 Q. g  F5 H
游客,如果您要查看本帖隐藏内容请回复
熊建军窑 黄地描金开光山水茶具
景瓷网特惠价:¥8869.00元
工艺:釉上彩
10个免费拿iPhone6的机会
方式:只需0元预约参与抽奖
奖品:电信版iPhone6
回复

使用道具 举报

 楼主| 发表于 2010-6-15 13:50 | 显示全部楼层
Exact Audio Copy V0.99 prebeta 5 from 4. May 2009
3 ]2 V; U5 q. t4 v( d+ a( i" B3 ~9 Q$ A- N
EAC 抓取日志文件从20. 四月 2010, 18:07
/ A# d% `4 j3 Y7 z
, H6 e$ k- b5 [( _' rVarious Artists / La Divina 2 - Maria Callas (EMI 1993)
& t$ I2 ?4 {+ k: [
( X: j% H% x4 G. {使用驱动器  :HL-DT-STDVDRAM GSA-4083N   Adapter: 0  ID: 0
/ ]) u( i$ j; A; ]. F" x' |) W
- t9 O/ F- J, n, c4 c% @读取模式     : 保护, X$ [) E( [8 [  m+ f5 f4 r
使用精确流   : 是! G( o) k6 S/ I' \) v- N# h) g1 l
废除音频缓冲 : 否
9 I; u2 @9 Y. M2 ?5 p* o. Z使用 C2 指针 : 是
. k+ u7 a( m8 D& n2 @$ i7 ~
- _& t) F# [1 T/ p& A. i2 r读取偏移校正                   : 667( H4 N7 o; s2 ^6 t) T1 {+ H
读取 Lead-In 和 Lead-Out       : 否3 ~' y  A. n3 f9 _
用静音填充抓取中丢失偏移的采样 : 是6 Z2 f) `: u: V
去除首尾静音块                 : 否- Z0 X% \* m8 m* `, O
在 CRC 计算中使用了空样本      : 否. w# \4 C' q4 ]! x% A. v: K
已用接口                       : Win NT 及 2000 本地 Win32 接口
4 y9 G; `9 o: F) L- z& u
' f# }% T5 _& ^6 u( U所用输出格式 : 内部 WAV 函数. Z; [' v9 z3 @3 h
样本格式     : 44.100 Hz;16 Bit;立体声: j3 p" p8 n* W8 |, k

( j# h3 F$ U* |( k! V- ]- p1 z2 D' a9 i. `
被抓轨 CD 的 TOC; W9 S! v, P) G. q

6 h; G0 \; V) l: V7 i, r: f     音轨 |   开始   |   长度   | 起始扇区 | 结尾扇区
* h2 I" H0 f5 x: @. s/ v+ F    --------------------------------------------------
. l& W9 X- B, {       1  |  0:00.33 |  4:25.42 |      33  |   19949  
; g- F: K. k* p) k/ [       2  |  4:26.00 |  4:24.30 |   19950  |   39779  
$ C; _9 h4 @5 O9 Z) @       3  |  8:50.30 |  6:15.55 |   39780  |   67959  6 `% P1 K* e1 K2 H$ B8 x8 j
       4  | 15:06.10 |  2:53.60 |   67960  |   80994  
. K8 W4 _9 [4 }' K# {) D0 N7 h       5  | 17:59.70 |  7:05.35 |   80995  |  112904  
& f6 \$ a& J6 X- ]       6  | 25:05.30 |  4:24.53 |  112905  |  132757  
9 r# k5 h  t1 J8 v# ~* N5 F2 k) `       7  | 29:30.08 |  4:01.17 |  132758  |  150849  
* M* @2 K. I' d3 |. {% r       8  | 33:31.25 |  4:48.08 |  150850  |  172457  7 y6 R6 h; J. T% M$ Z/ _3 Y9 k# x
       9  | 38:19.33 |  3:22.02 |  172458  |  187609  
, Q" w2 b7 v  S: s- n8 A2 I      10  | 41:41.35 |  5:11.45 |  187610  |  210979  
" y; E, H7 e# W; ~4 l      11  | 46:53.05 |  5:18.65 |  210980  |  234894  * B9 s) o/ E% [% A# {0 W5 c
      12  | 52:11.70 |  4:45.45 |  234895  |  256314  0 H( G/ H/ p+ B3 r5 L3 n+ N
      13  | 56:57.40 |  5:17.35 |  256315  |  280124  
3 o5 U$ t9 ?0 V4 h6 G      14  | 62:15.00 |  5:48.43 |  280125  |  306267  $ s7 A7 _' L. x! n
      15  | 68:03.43 |  3:47.00 |  306268  |  323292  
) _* l- D  c+ \7 U4 K1 \# x& k      16  | 71:50.43 |  4:07.05 |  323293  |  341822  % \2 j4 y% q) D0 o8 f% Y8 B

8 r/ k! j% m, q3 Z! ~. p# N$ o
2 h. w% l# r2 l/ O范围状态及错误
( ^# G: {1 P# k- Y# |3 Q# g2 j" j; t" m
已选择范围
- n8 x8 }, M8 n; _4 d' M, g
0 u8 U" v( g5 c     文件名 D:\Various Artists - La Divina 2 - Maria Callas (EMI 1993).wav
1 P& E2 h! ?8 R! Y2 H; [0 ]3 E& \) t# \1 R
     峰值电平 99.7 %$ }* f1 v7 `* f2 y7 Y
     范围质量 100.0 %
! a* E) k# t7 y* _# {; A     复制 CRC CAF664D1( b) ]: F: a. v! B  r9 J/ }
     复制成功
" U9 ?  ~4 R; |% L! d
6 C; k2 A- w+ x2 G) ~没有错误发生5 `; Q! t$ H6 q& `4 H. L" {" f
9 p: S+ }! e8 S2 ?

  a5 r% G7 {1 H; l  X+ ?7 GAccurateRip 概要/ S( h* a/ `. ?+ g9 j

2 ~  y( K0 U/ S# P+ C: T1 y音轨  1  已正确抓取 (确认 32)  [8C7158F1]
  @  a7 E; h$ \3 H9 I% _# n' A9 }音轨  2  已正确抓取 (确认 33)  [C3141CF2]" K3 W/ D& ]: _) G# F
音轨  3  已正确抓取 (确认 32)  [952AC55D]% j% s& v" C7 \% J) F  L* l* b- d/ {
音轨  4  已正确抓取 (确认 33)  [D883EFA3]2 Y7 d% |, S5 \- {5 Y
音轨  5  已正确抓取 (确认 32)  [94F48CD0]  a) l: d; ?$ D" Q
音轨  6  已正确抓取 (确认 32)  [A39C793E]
$ p% \" Y; Q$ l& W& M1 I音轨  7  已正确抓取 (确认 31)  [0982B957]
' _8 q3 ?) ?& s8 R* z& o! o音轨  8  已正确抓取 (确认 32)  [5EDFC8FB]% n' k3 `2 w4 m) I* z7 R- Q7 t
音轨  9  已正确抓取 (确认 33)  [CBC9DC1B]
3 v0 D3 w; P& L- [$ [* k5 t音轨 10  已正确抓取 (确认 32)  [8EC70A1F]$ U1 F) `# v5 _, W( t
音轨 11  已正确抓取 (确认 32)  [485919B4]/ @: L; C) Y. X6 ]3 R* @* ~7 A5 V
音轨 12  已正确抓取 (确认 31)  [BA2683A1]
* k9 T2 o% n# g4 M音轨 13  已正确抓取 (确认 31)  [D3C890B0]1 e1 y; B. ]# C' E* v1 u
音轨 14  已正确抓取 (确认 31)  [CF32C463]+ O$ T* B/ C. ?& m) g
音轨 15  已正确抓取 (确认 32)  [1AEBBA51]! W/ p' S' v) k& U  Z1 i. x
音轨 16  已正确抓取 (确认 31)  [654BA2BD]) ^1 O5 h) I# E4 Q5 g
0 {3 a' g9 M7 n+ M9 O4 n. [, `
所有音轨已被精确抓取; w( w8 D. {9 n% k2 P
" V( R; Y2 u& ~
状态报告结尾
回复 支持 反对

使用道具 举报

发表于 2010-9-7 15:21 | 显示全部楼层
回复 支持 反对

使用道具 举报

大江网友  发表于 2011-1-27 17:53
很经典
回复 支持 反对

使用道具

发表于 2011-4-6 10:52 | 显示全部楼层
地址还有效不??
回复 支持 反对

使用道具 举报

发表于 2011-10-19 09:54 | 显示全部楼层
下载地址在哪里啊?
回复 支持 反对

使用道具 举报

发表于 2012-3-17 21:14 | 显示全部楼层
现在还能下载不
回复 支持 反对

使用道具 举报

发表于 2012-5-8 10:53 | 显示全部楼层
callas 最经典的传奇,值得怀念
. O, D* @. m- V3 L  H, A: r4 F& Q6 ]' l* N$ J& U' ?+ W
回复 支持 反对

使用道具 举报

发表于 2012-7-31 15:50 | 显示全部楼层
{:soso_e101:}
回复 支持 反对

使用道具 举报

发表于 2012-9-7 15:52 | 显示全部楼层
我喜欢歌剧,尽管欣赏不了
回复 支持 反对

使用道具 举报

您需要登录后才可以回帖 登录 | 会员注册

本版积分规则

app下载|论坛监狱|手机版|Archiver|大江论坛

GMT+8, 2019-10-21 05:10 , Processed in 0.159768 second(s), 26 queries , Gzip On.

Powered by Discuz! X3.4

© 大江网论坛

快速回复 返回顶部 返回列表