金圣·大江论坛 - 江西论坛

 找回密码
 会员注册

QQ登录

只需一步,快速开始

搜索
查看: 73448|回复: 17
收起左侧

[雅乐] 原抓-歌剧女王玛利亚卡拉斯精选2 EMI荷兰版 [APE/297M]下载

[复制链接]
发表于 2010-6-15 13:40 | 显示全部楼层 |阅读模式

立即注册,与更多好友畅游大江!

您需要 登录 才可以下载或查看,没有帐号?会员注册

x
本帖最后由 菌菌 于 2010-6-15 14:51 编辑
  y9 [  O. P9 R! _! C
4 h% o0 @' ^2 b( J4 v7 O9 W7 A0 o 卡拉斯1.jpg
6 h. T3 H9 }2 y4 q8 e 卡拉斯2.jpg - o+ O  w3 }) a6 j5 B
卡拉斯3.jpg - k4 [3 q5 |+ L6 X! i5 B
+ B! q- M$ v& R$ k5 t* j
这张CD貌似在网络上还没见过,只有电驴上有第三集的,有兴趣可以去看下。: b  P  W7 W  |' u1 t7 O

. U& l9 I6 W  c5 S% _
& @: X8 @+ M$ T1 l' M3 A7 r, Z' M! s) U: q
专辑介绍:
: U4 o) Y& x+ V9 I7 Y" o: M4 O& ^# W- U! w) {- p
       1992年,距离卡拉丝瘁亡於巴黎后15年过去了,EMI首度推出〈歌剧女神〉纪念专辑一秋日之中驀然回首,歌剧女神世纪性绝代风华重现。跨越著世代的阻隔,九零年代世纪末的氛围中,卡拉丝的凝视与红唇继续她重返的宣称─1993年〈歌剧女神2〉仍然深深攫获广大寂寞与绝望边缘的人心。8 e$ h" \7 _) j
' f# o' L4 j. S* C  U) x  C; x
  1994年,TOM HANKS以电影〈费城〉获奥斯卡最佳男主角─那个让世人纷纷跨越藩篱喜爱著的勇敢角色,在他的生命奋战过程中所最钟爱的音乐便是卡拉丝,一段带著点滴瓶、却仍全神融入〈LA MAMMA MORTA〉聆听的撼人演,让卡拉丝的演唱被称誉为"影史少见非原著配乐的最佳詮释",卡拉丝因此成为电影〈费城〉音乐意象的真正守护神,与BRUCE SPRINGSTEEN、NEIL YOUNG鼎足而立、但是却有更深沈的艺术生命与更超越的希望救赎。+ g5 R3 V& v7 l6 L+ O

4 }2 f- s: R% C* _$ L& f   走过整个世纪的孤寂与动荡终於发现卡拉丝─现在,我们给您完整的、只在EMI"歌剧女神"再次深情重返。* w% H) G7 Z+ K2 N

4 A9 W: [  g# P( s   卡拉丝在她短短不到二十年的歌剧演唱生涯中,散发出无人能比的光与热,影响二十世纪后半叶乐坛极深,再加上唱片录音助长,使其影响力堪成史上无人能及。她的演唱生涯一开始是以唱功偏重的戏剧女高音开始的,她先是演唱杜兰朵公主和华格纳的伊索德闻名,之后才以人惊奇的姿态迅速转型为美声演唱家,一手提携了在当时已经没落的美声歌剧,以浓郁的戏剧手法,把董尼采第、贝里尼和罗西尼等人的歌剧再度带回到现代歌剧院中。综观卡拉丝的歌唱技艺,她丰富多变的音色,可以说最人惊讶而一再被人提及的。她可以用让人几乎无法辨识的嗓音演唱不同角色,甚至在同一剧中,为主角不同阶段的心情、年纪塑造不同的音色,以达到其戏剧上的效果。她在每一场演出中无遗餘力、毫无保留的卖力演唱,则更是让她教人难忘的主要原因之一。她深入刻划剧中人物的演出功力,以及对音乐和戏剧的感应之深,也是历来女高音所无法企及的地方。   在这选辑中,我们可以听到卡拉以远超过其他女高音的多样风格,展现了她的歌唱绝艺。她在写实歌剧、法国歌剧、意大利古典歌剧和美声歌剧之间游走,对寻常的女高音而言,这是横跨花腔、戏剧女高音、抒情女高音和重抒情女高音的广泛类别,若非实力到此,轻易尝试必遭恶评、甚至身败名裂,唯独卡拉丝,却能够在其中游刃有餘,让每个角色都像是她与生俱来的一样。5 c- t9 F) n8 X$ X- ]" [; m
7 `; o6 `# O5 c- B
# k. A* w* `9 ?
( V! Z% J( D6 ]" [5 k6 }
下载种子
& u. _6 ?- Z8 x8 `
游客,如果您要查看本帖隐藏内容请回复
熊建军窑 黄地描金开光山水茶具
景瓷网特惠价:¥8869.00元
工艺:釉上彩
10个免费拿iPhone6的机会
方式:只需0元预约参与抽奖
奖品:电信版iPhone6
回复

使用道具 举报

 楼主| 发表于 2010-6-15 13:50 | 显示全部楼层
Exact Audio Copy V0.99 prebeta 5 from 4. May 2009# j9 [6 k6 w: h) @

9 z* X, D( p  i- S- }EAC 抓取日志文件从20. 四月 2010, 18:07
3 h0 u  X' T' {+ D& a7 e" ?" a  A$ r. Z2 X2 n& y
Various Artists / La Divina 2 - Maria Callas (EMI 1993)
) [+ g* T. T$ M  t/ Z& ]+ \" C0 o4 T; Y4 f
使用驱动器  :HL-DT-STDVDRAM GSA-4083N   Adapter: 0  ID: 0/ K% e; G7 Q9 C3 W3 d8 z5 F  }" P

7 Z8 O7 }- z& a读取模式     : 保护" `6 ~" m" n  ^" E, f+ G
使用精确流   : 是9 [( m) b- `$ ^, l
废除音频缓冲 : 否
* _0 y6 \3 S+ m0 A" a3 d! w4 G使用 C2 指针 : 是% ~+ K7 P; n8 Z& I+ ?" F# V) q2 [

/ \4 x6 _& \2 g4 G2 F读取偏移校正                   : 667# ^  a4 p8 @, x5 Z* v* e: f" c
读取 Lead-In 和 Lead-Out       : 否/ u  }+ Y3 O, }( b& p% H6 g
用静音填充抓取中丢失偏移的采样 : 是# C/ A4 _" h3 V. \
去除首尾静音块                 : 否
4 S" `: o2 G* z" p2 a* F, S在 CRC 计算中使用了空样本      : 否2 z7 O7 Y4 [  [6 }
已用接口                       : Win NT 及 2000 本地 Win32 接口
3 D4 A. j( m& E, B! t+ q- A6 o
. J- ~+ i) |* ?所用输出格式 : 内部 WAV 函数$ y$ N  h$ j  x  Q& z3 j# U2 P9 C8 T
样本格式     : 44.100 Hz;16 Bit;立体声6 g$ G; _# c( V9 L

# P5 ?- o$ S$ b: n- B) W. {% }0 o7 d
被抓轨 CD 的 TOC
* X+ Y( B% B- w5 J: E1 D
3 ~5 c( {, u6 `' `) Z$ u1 @     音轨 |   开始   |   长度   | 起始扇区 | 结尾扇区
* H8 a+ A  D( F! W  y    --------------------------------------------------
2 W6 C7 n$ F3 _2 J       1  |  0:00.33 |  4:25.42 |      33  |   19949  
, w9 M/ B* I1 I( I; i       2  |  4:26.00 |  4:24.30 |   19950  |   39779  3 B# O; c( e1 u6 ~3 Y
       3  |  8:50.30 |  6:15.55 |   39780  |   67959  5 R' @# j: O7 p4 H+ ~
       4  | 15:06.10 |  2:53.60 |   67960  |   80994  & W+ O# x. Z) w! `: F
       5  | 17:59.70 |  7:05.35 |   80995  |  112904  
- d1 h9 B* G/ u+ D: C5 z$ d       6  | 25:05.30 |  4:24.53 |  112905  |  132757  
1 t2 _, M% e& C  b$ @% k       7  | 29:30.08 |  4:01.17 |  132758  |  150849  ' [0 I* l; W" N! T. j+ b) z7 L: P
       8  | 33:31.25 |  4:48.08 |  150850  |  172457  + N" O' Q* f# E! F2 C' }, [  _
       9  | 38:19.33 |  3:22.02 |  172458  |  187609  
% `: a$ i. o$ T2 T! x      10  | 41:41.35 |  5:11.45 |  187610  |  210979  
/ o6 U6 J; E: ]      11  | 46:53.05 |  5:18.65 |  210980  |  234894  . z# \$ }0 Q" _7 l# ]
      12  | 52:11.70 |  4:45.45 |  234895  |  256314  
! v8 ?0 ]8 B: P4 L      13  | 56:57.40 |  5:17.35 |  256315  |  280124  : p" X% @6 L6 L, O) S
      14  | 62:15.00 |  5:48.43 |  280125  |  306267  
' t. v9 C& c8 c" S1 L6 M. T3 j% e      15  | 68:03.43 |  3:47.00 |  306268  |  323292  
: J1 t$ I/ c" X! t      16  | 71:50.43 |  4:07.05 |  323293  |  341822  
9 Z& g% E9 b" ~( V8 m/ t7 k) U+ D" S# Y
" u7 z7 c8 m$ a9 U9 u6 D- U: f
范围状态及错误2 H4 m& ], U* W; L8 y9 Z
1 b- R9 a. _6 x, S
已选择范围
" F, A6 o/ B8 a- M) x0 j* ]
) d& F- u$ x  B2 E8 r     文件名 D:\Various Artists - La Divina 2 - Maria Callas (EMI 1993).wav
: m2 l+ U: i( h3 L& Z- s1 a# Y
9 R" F* z3 C/ [9 j9 J3 [- U     峰值电平 99.7 %
# |+ f: X, m  \/ V& k     范围质量 100.0 %8 D9 @/ B8 l6 k
     复制 CRC CAF664D1. B+ X" [: Q7 e& Z
     复制成功
" ]' _: y" N6 t' F0 Y( x& s' d0 O8 K; Q# ]# \
没有错误发生6 X5 |5 c+ l% l# }: h/ j) d0 C) P

+ S9 v! ^  ^( D# g9 {  f
5 ~: e& w+ I! ~0 a! P; j4 CAccurateRip 概要
  t  C  |7 n2 k4 ~, A! K0 r" Q  \; h* B1 J
音轨  1  已正确抓取 (确认 32)  [8C7158F1]
, o7 i: L) N5 y# y音轨  2  已正确抓取 (确认 33)  [C3141CF2]" O2 F) u' w% R; [% h$ |% T' W
音轨  3  已正确抓取 (确认 32)  [952AC55D]3 p" l8 ]# f) d- E" d( Z
音轨  4  已正确抓取 (确认 33)  [D883EFA3]
' ^( T3 ]2 @9 ?% X音轨  5  已正确抓取 (确认 32)  [94F48CD0]6 Q1 p4 F$ l1 ^1 y4 l' u7 L
音轨  6  已正确抓取 (确认 32)  [A39C793E]# w0 w3 t0 S* c2 u7 R3 z
音轨  7  已正确抓取 (确认 31)  [0982B957]/ b* z/ D/ Q! [$ B
音轨  8  已正确抓取 (确认 32)  [5EDFC8FB]
* N2 s# f; n4 v音轨  9  已正确抓取 (确认 33)  [CBC9DC1B]
, I+ @& J7 e6 x4 Y$ r音轨 10  已正确抓取 (确认 32)  [8EC70A1F]* {5 ^2 e4 Q# M% N# n
音轨 11  已正确抓取 (确认 32)  [485919B4]
- u* V3 `  |5 ]5 ~' G; X1 o* ?# d音轨 12  已正确抓取 (确认 31)  [BA2683A1]
& l. T% f( g+ c. J. n音轨 13  已正确抓取 (确认 31)  [D3C890B0]6 v+ Q0 w* s4 w# l8 v% ?2 [
音轨 14  已正确抓取 (确认 31)  [CF32C463]9 b+ T1 K& X% d) r7 A6 |# w9 Y# O6 h
音轨 15  已正确抓取 (确认 32)  [1AEBBA51], i/ I1 ~  K3 @- ?) O8 ?/ V
音轨 16  已正确抓取 (确认 31)  [654BA2BD]! ?2 }0 n. a. ~, K5 W2 G

1 [8 M. N4 w. i所有音轨已被精确抓取
5 s& V- R5 ~- w9 C5 D) d9 p' ~
4 p4 a( y% e6 {4 O# \状态报告结尾
回复 支持 反对

使用道具 举报

发表于 2010-9-7 15:21 | 显示全部楼层
回复 支持 反对

使用道具 举报

大江网友  发表于 2011-1-27 17:53
很经典
回复 支持 反对

使用道具

发表于 2011-4-6 10:52 | 显示全部楼层
地址还有效不??
回复 支持 反对

使用道具 举报

发表于 2011-10-19 09:54 | 显示全部楼层
下载地址在哪里啊?
回复 支持 反对

使用道具 举报

发表于 2012-3-17 21:14 | 显示全部楼层
现在还能下载不
回复 支持 反对

使用道具 举报

发表于 2012-5-8 10:53 | 显示全部楼层
callas 最经典的传奇,值得怀念
3 W% G, h% e* E/ L$ [7 K; n
+ i5 j3 D. R9 C; C
回复 支持 反对

使用道具 举报

发表于 2012-7-31 15:50 | 显示全部楼层
{:soso_e101:}
回复 支持 反对

使用道具 举报

发表于 2012-9-7 15:52 | 显示全部楼层
我喜欢歌剧,尽管欣赏不了
回复 支持 反对

使用道具 举报

您需要登录后才可以回帖 登录 | 会员注册

本版积分规则

app下载|论坛监狱|手机版|Archiver|大江论坛

GMT+8, 2019-10-23 09:26 , Processed in 0.102778 second(s), 26 queries , Gzip On.

Powered by Discuz! X3.4

© 大江网论坛

快速回复 返回顶部 返回列表